#TITLE:Round House;
#SUBTITLE:;
#ARTIST:.....;
#TITLETRANSLIT:Round House;
#SUBTITLETRANSLIT:;
#ARTISTTRANSLIT:.....;
#CREDIT:Chu Nhat , 3-5-2009;
#BANNER:Round House-bn.png;
#BACKGROUND:Round House-bg.png;
#LYRICSPATH:;
#CDTITLE:pm4cd.png;
#MUSIC:Round House.mp3;
#OFFSET:0.280;
#SAMPLESTART:55.080;
#SAMPLELENGTH:20.000;
#SELECTABLE:YES;
#BPMS:0.000=143.030;
#STOPS:;
#BGCHANGES:;
// cache tags:
#FIRSTBEAT:4.000;
#LASTBEAT:311.000;
#SONGFILENAME:Songs/Music V.I.P ^_^/Round House/Round House.sm;
#HASMUSIC:1;
#HASBANNER:0;
#MUSICLENGTH:131.136;
// end cache tags

//---------------dance-single - ----------------
#NOTES:
     dance-single:
     :
     Hard:
     17:
     1.000,1.000,1.000,0.648,0.580,652.000,320.000,85.000,0.000,92.000:
0000
0000
0000
0000
,
1000
0100
0010
0001
0000
0000
0000
0000
1000
0100
0010
0001
0000
0000
0000
0000
1000
0100
0010
0001
0000
0000
0000
0000
1000
0100
0010
0001
0000
0000
0000
0000
,
1000
0100
0010
0001
0000
0000
0000
0000
1000
0100
0010
0001
0000
0000
0000
0000
1000
0100
0010
0001
0000
0000
0000
0000
1000
0100
0010
0001
0000
0000
0000
0000
,
0001
0010
0100
1000
0000
0000
0000
0000
0001
0010
0100
1000
0000
0000
0000
0000
0001
0010
0100
1000
0000
0000
0000
0000
0001
0010
0100
1000
0000
0000
0000
0000
,
0001
0010
0100
1000
0000
0000
0000
0000
0001
0010
0100
1000
0000
0000
0000
0000
0001
0010
0100
1000
0000
0000
0000
0000
0001
0010
0100
1000
0000
0000
0000
0000
,
1000
0100
0010
0001
0000
0000
0000
0000
1000
0100
0010
0001
0000
0000
0000
0000
1000
0100
0010
0001
0000
0000
0000
0000
1000
0100
0010
0001
0000
0000
0000
0000
,
1000
0100
0010
0001
0000
0000
0000
0000
1000
0100
0010
0001
0000
0000
0000
0000
1000
0100
0010
0001
0000
0000
0000
0000
1000
0100
0010
0001
0000
0000
0000
0000
,
0001
0010
0100
1000
0000
0000
0000
0000
0001
0010
0100
1000
0000
0000
0000
0000
0001
0010
0100
1000
0000
0000
0000
0000
0001
0010
0100
1000
0000
0000
0000
0000
,
0001
0010
0100
1000
0000
0000
0000
0000
0001
0010
0100
1000
0000
0000
0000
0000
0001
0010
0100
1000
0000
0000
0000
0000
0001
0010
0100
1000
0000
0000
0000
0000
,
1000
0010
0100
0001
0010
1000
0010
0100
0001
0010
1000
0010
0100
0001
0010
1000
,
0100
0001
0010
0100
1000
0010
0100
0010
0001
0100
0010
1000
0100
0001
0010
0100
,
0001
0010
0001
0100
1000
0010
0100
0001
0010
1000
0010
0001
0100
0010
1000
0001
,
0010
0100
0010
1000
0001
0010
1000
0010
0001
0100
0010
0001
0010
1000
0010
0100
,
1001
0001
0101
0001
1001
0001
0101
0001
1001
0001
0101
0001
1001
0001
0101
0001
,
1001
0001
0101
0001
1001
0001
0101
0001
1001
0001
0101
0001
1001
0001
0101
0001
,
1001
0001
0101
0001
1001
0001
0101
0001
1001
0001
0101
0001
1001
0001
0101
0001
,
2010
0001
0010
0100
0010
0001
0010
0100
,
3010
0001
0110
1000
0020
0100
1001
1000
,
0130
0010
1100
0010
0001
1000
0011
0100
,
0010
1000
0110
0001
1000
0010
1100
0010
,
0001
0100
0011
0100
1000
0100
1001
0100
,
0010
0100
0011
1000
0020
0100
1001
0001
,
0130
1000
0110
0001
0010
0001
1010
0100
,
0001
0010
1100
0001
0010
0001
0101
0010
,
0100
0001
0011
1000
0010
0100
1001
0010
,
0100
0001
1010
1000
0002
0100
1010
0100
,
0013
1000
0110
0001
0100
0010
1001
0100
,
0010
0001
1010
0001
0100
0010
1100
0001
,
0100
1000
0011
0100
0010
0001
1010
0100
,
0010
0001
1100
0010
2000
0100
0011
0001
,
3010
0100
0011
1000
0010
0100
1001
0010
,
0100
0001
1100
0010
0001
0100
0011
0100
,
0010
0001
1100
0010
0001
0100
0011
0100
,
2100
0000
0012
3000
2100
0003
0012
3000
,
1200
0003
0021
0300
1200
0030
0021
0300
,
2100
0030
0012
3000
2100
0003
0012
3000
,
1200
0003
0021
0300
1200
0030
0021
0300
,
2100
0030
0012
3000
2100
0003
0012
3000
,
1200
0003
0021
0300
1200
0030
0021
0300
,
2100
0030
0012
3000
2100
0003
0012
3000
,
1200
0003
0021
0300
1200
0030
0021
0300
,
1100
0131
0011
1100
0101
1010
0101
1010
,
0110
0011
0101
1010
0110
1100
0011
0110
,
0011
0110
1010
0011
0110
1001
0101
0011
,
1100
0110
1001
0101
1010
0011
0110
0011
,
1100
0110
0101
0110
1001
0110
0011
0110
,
1001
0110
0011
0101
1100
0011
1010
0110
,
0011
1010
0101
0110
1100
0011
0101
1100
,
0110
0011
1100
0101
1010
0101
0110
0011
,
2100
0000
0012
3000
2100
0003
0012
3000
,
1200
0003
0021
0300
1200
0030
0021
0300
,
2100
0030
0012
3000
2100
0003
0012
3000
,
1200
0003
0021
0300
1200
0030
0021
0300
,
2100
0030
0012
3000
2100
0003
0012
3000
,
1200
0003
0021
0300
1200
0030
0021
0300
,
2100
0030
0012
3000
2100
0003
0012
3000
,
1200
0003
0021
0300
1200
0030
0021
0300
,
1100
0131
0110
1100
0021
0101
1001
1100
,
0131
0011
1100
0011
0101
1100
0011
0110
,
0011
1100
0110
0011
1100
0011
1100
0011
,
0101
1100
0011
0110
1010
0101
1001
0110
,
0110
1100
0011
1001
0021
0101
1001
0101
,
0130
1100
0110
0011
0110
0011
1010
0110
,
0011
0101
1100
0011
1010
0011
0101
1010
,
0101
1001
0011
1100
0011
0101
1001
0110
,
0110
0101
1010
1100
0012
1100
1010
0110
,
0113
1001
0110
0011
1100
0110
1001
0110
,
0011
0101
1010
0101
0110
0011
1100
0011
,
0101
1100
0011
1100
0011
0101
1010
0101
,
0110
0011
1100
0011
2001
0110
0011
0101
,
3011
0110
0011
1100
0110
0101
1001
0110
,
0110
0011
1100
0011
0101
1100
0011
0110
,
0110
0011
1100
0011
0101
1100
0011
0110
,
2100
0000
0210
3000
0021
0300
1002
0030
,
2100
0003
0210
3000
0021
0300
1002
0030
,
2000
0003
0200
3000
0020
0300
0002
0030
,
1000
0003
0100
0000
0010
0000
0001
0000
,
1000
0100
0010
0001
;
